Torrent Details

The Grinch (2018) 720p English Pre-DVDRip x264 AAC by Full4movies
The Grinch (2018) 720p English Pre-DVDRip x264 AAC by Full4movies
Size660 MB in 1 file
ReleasesAdded on 12.11.2018 at 5:50 into the Movies category by Unknown.
Status0 seeds & 0 peers.
Hash87fa8453ac3027199cae31c38199eb9a2476137a
Rating
  • YourBT Visitors

Status This torrent has been verified.
*

Torrent Description

General
Complete name : The Grinch (2018) 720p English Pre-DVDRip x264 AAC by Full4movies.mkv
Format : Matroska
Format version : Version 4 / Version 2
File size : 660 MiB
Duration : 1 h 18 min
Overall bit rate : 1 169 kb/s
Movie name : www.Full4moveis.co
Encoded date : UTC 2018-11-11 05:36:55
Writing application : mkvmerge v8.1.0 ('Psychedelic Postcard') 32bit
Writing library : libebml v1.3.1 + libmatroska v1.4.2

Video
ID : 1
Format : AVC
Format/Info : Advanced Video Codec
Format profile : [email protected]
Format settings, CABAC : Yes
Format settings, RefFrames : 4 frames
Codec ID : V_MPEG4/ISO/AVC
Duration : 1 h 18 min
Bit rate : 1 088 kb/s
Width : 1 280 pixels
Height : 536 pixels
Display aspect ratio : 2.40:1
Frame rate mode : Constant
Frame rate : 29.970 (30000/1001) FPS
Color space : YUV
Chroma subsampling : 4:2:0
Bit depth : 8 bits
Scan type : Progressive
Bits/(Pixel*Frame) : 0.053
Stream size : 613 MiB (93%)
Writing library : x264 core 155 r2901 7d0ff22
Default : Yes
Forced : No
Color range : Limited
Color primaries : BT.709
Transfer characteristics : BT.709
Matrix coefficients : BT.709

Audio
ID : 2
Format : AAC
Format/Info : Advanced Audio Codec
Format profile : LC
Codec ID : A_AAC
Duration : 1 h 18 min
Bit rate : 80.4 kb/s
Channel(s) : 2 channels
Channel positions : Front: L R
Sampling rate : 48.0 kHz
Frame rate : 46.875 FPS (1024 SPF)
Compression mode : Lossy
Delay relative to video : -21 ms
Stream size : 45.4 MiB (7%)
Language : English
Default : Yes
Forced : No

Screen Shoots



Similar Torrents

No Similar Torrents Found

If we find similar torrents, we normally show them right here. We couldn't find anything for "".

Torrent Trackers

Files inside this torrent

FILENAMESIZE
icon The Grinch (2018) 720p English Pre-DVDRip x264 AAC by Full4movies.mkv659.6 MB